<?xml version="1.0" standalone="no"?>
<!DOCTYPE svg PUBLIC "-//W3C//DTD SVG 1.1//EN" "http://www.w3.org/Graphics/SVG/1.1/DTD/svg11.dtd" >
<svg xmlns="http://www.w3.org/2000/svg">
<metadata>Generated by IcoMoon</metadata>
<defs>
<font id="icomoon" horiz-adv-x="1024">
<font-face units-per-em="1024" ascent="960" descent="-64" />
<missing-glyph horiz-adv-x="1024" />
<glyph unicode="&#x20;" horiz-adv-x="512" d="" />
<glyph unicode="&#xe900;" glyph-name="iconos-01" d="M512 843.401l-465.135-418.645h139.537v-372.156h232.516v279.142h186.095v-279.142h232.585v372.156h139.537z" />
<glyph unicode="&#xe901;" glyph-name="iconos-02" d="M512 919.654l-139.469-329.011-357.035-30.652 270.848-234.701-81.169-348.945 306.825 185.037 306.825-185.037-81.169 348.945 270.848 234.701-357.035 30.652z" />
<glyph unicode="&#xe902;" glyph-name="iconos-03" d="M940.339 71.305l-211.149 211.115c52.326 63.795 83.866 145.545 83.866 234.598 0 204.288-165.751 370.074-370.074 370.074-204.459 0-370.074-165.751-370.074-370.074s165.615-370.108 370.074-370.108c89.054 0 170.633 31.403 234.428 83.695l211.115-210.944c14.302-14.302 37.444-14.302 51.814 0 14.302 14.165 14.302 37.513 0 51.644zM443.017 220.57c-163.635 0-296.585 132.983-296.585 296.448s132.983 296.585 296.585 296.585c163.43 0 296.585-133.154 296.585-296.585s-133.154-296.448-296.585-296.448z" />
<glyph unicode="&#xe903;" glyph-name="iconos-04" d="M701.508 845.961l18.91-18.944-378.982-379.017 378.982-379.051-18.91-18.91-397.926 397.961z" />
<glyph unicode="&#xe904;" glyph-name="iconos-05" d="M322.492 845.961l-18.91-18.944 378.982-379.017-378.982-379.051 18.91-18.91 397.926 397.961z" />
<glyph unicode="&#xe905;" glyph-name="iconos-06" d="M712.397 848.657l-103.97 0.171c-116.804 0-192.273-77.449-192.273-197.291v-90.965h-104.516c-9.045 0-16.35-7.339-16.35-16.35v-131.823c0-9.045 7.305-16.35 16.35-16.35h104.55v-332.561c0-9.045 7.305-16.35 16.35-16.35h136.397c9.011 0 16.35 7.305 16.35 16.35v332.561h122.197c9.079 0 16.35 7.305 16.35 16.35l0.034 131.823c0 4.335-1.707 8.499-4.813 11.537-3.038 3.072-7.236 4.813-11.537 4.813h-122.266v77.107c0 37.069 8.841 55.876 57.105 55.876h70.042c9.045 0 16.35 7.339 16.35 16.35v122.402c-0.034 9.011-7.339 16.35-16.35 16.35z" />
<glyph unicode="&#xe906;" glyph-name="iconos-07" d="M903.953 697.583c-5.257-11.059-15.019-25.054-29.286-41.95s-31.915-31.778-52.873-44.578c0.614-4.676 0.99-9.045 1.297-13.141 0.307-4.062 0.478-8.431 0.478-13.107 0-24.474-2.799-51.268-8.329-80.384s-14.131-58.675-25.771-88.713c-11.674-30.003-26.351-59.733-44.169-89.122-17.783-29.423-38.878-56.661-63.317-81.749s-52.292-47.172-83.456-66.389-66.014-33.519-104.448-42.837c-44.851-9.899-89.737-14.848-134.588-14.848-19.217 0-39.151 0.99-59.836 3.038-20.685 2.082-41.404 5.837-62.054 11.401-20.651 5.495-41.062 12.937-61.167 22.255-20.105 9.284-38.912 21.231-56.354 35.84 45.431-6.417 88.405-2.765 128.853 10.923 40.55 13.653 77.38 33.041 110.558 58.095-7.578 0-17.613 0.717-30.14 2.15s-25.941 5.837-40.209 13.141c-14.268 7.27-28.706 18.466-43.281 33.621-14.575 15.121-27.409 36.42-38.468 63.795 3.516-1.161 8.329-1.911 14.438-2.15 6.144-0.307 12.663-0.171 19.661 0.41 6.997 0.614 13.824 1.331 20.548 2.185s12.663 1.911 17.92 3.038c-30.31 9.318-54.033 21.743-71.236 37.171-17.169 15.428-29.867 31.3-37.99 47.65-8.158 16.35-13.312 31.778-15.292 46.285-2.082 14.575-3.072 25.941-3.072 34.099 7.578-4.676 18.671-9.591 33.212-14.882 14.575-5.222 27.682-7.578 39.322-6.997-23.893 19.831-41.233 39.458-51.985 59.017s-17.203 38.537-19.251 56.9c-2.048 18.364-0.99 36.284 3.072 53.76s9.591 34.372 16.589 50.654c32.051-36.113 63.932-65.399 95.71-87.791 31.778-22.46 62.020-39.765 90.897-51.985 28.843-12.254 55.808-20.412 80.828-24.508 25.020-4.062 46.899-6.11 65.536-6.11-3.482 23.313-3.618 45.431-0.444 66.389 3.209 20.992 9.899 40.209 20.105 57.685s23.723 32.461 40.619 44.988 37.001 22.016 60.314 28.399c28.57 8.158 55.945 7.851 82.159-0.853s48.64-23.893 67.277-45.466c8.158 0.614 20.992 3.243 38.502 7.851 17.476 4.676 39.287 14.882 65.502 30.583-1.741-5.837-4.506-12.971-8.294-21.402-3.755-8.465-8.567-17.067-14.404-25.805s-12.834-17.169-20.992-25.327c-8.124-8.158-17.476-14.882-27.955-20.105 8.772 1.741 18.364 3.755 28.843 6.144 8.738 2.287 18.944 5.359 30.583 9.182s23.586 8.329 35.84 13.551z" />
<glyph unicode="&#xe907;" glyph-name="iconos-08" d="M743.083 262.451h-44.032l0.205 25.498c0 11.401 9.284 20.651 20.719 20.651h2.765c11.435 0 20.753-9.25 20.753-20.651l-0.41-25.498zM578.048 317.201c-11.162 0-20.309-7.509-20.309-16.691v-124.279c0-9.182 9.148-16.623 20.309-16.623 11.196 0 20.343 7.475 20.343 16.623v124.279c-0.034 9.182-9.148 16.691-20.343 16.691zM846.029 386.731v-236.442c0-56.73-49.186-103.117-109.295-103.117h-449.434c-60.177 0-109.329 46.387-109.329 103.117v236.442c0 56.73 49.152 103.117 109.329 103.117h449.434c60.109 0 109.295-46.387 109.295-103.117zM317.235 124.621v249.037h55.706v36.898l-148.514 0.239v-36.284l46.319-0.137v-249.719h46.49zM484.284 336.555h-46.455v-132.983c0-19.217 1.195-28.877-0.034-32.256-3.789-10.308-20.753-21.265-27.409-1.126-1.092 3.55-0.102 14.165-0.137 32.461l-0.205 133.905h-46.182l0.137-131.789c0-20.207-0.478-35.26 0.137-42.121 1.126-12.083 0.717-26.18 11.981-34.236 20.89-15.053 60.962 2.219 70.963 23.757l-0.102-27.443 37.342-0.068-0.034 211.9zM632.866 184.252l-0.102 110.694c-0.034 42.155-31.607 67.447-74.445 33.314l0.205 82.295-46.387-0.034-0.205-284.092 38.127 0.58 3.482 17.715c48.777-44.749 79.428-14.097 79.326 39.526zM778.274 198.929l-34.85-0.171c-0.034-1.399-0.102-3.004-0.102-4.71v-19.422c0-10.445-8.602-18.876-19.046-18.876h-6.827c-10.479 0-19.046 8.431-19.046 18.876v51.132h79.735v30.037c0 21.948-0.546 43.861-2.355 56.354-5.7 39.697-61.406 46.012-89.532 25.702-8.841-6.383-15.565-14.848-19.49-26.283-3.925-11.366-5.905-26.965-5.905-46.763v-66.014c0-109.739 133.291-94.242 117.419 0.137zM599.552 557.295c2.389-5.837 6.144-10.547 11.162-14.131 5.018-3.516 11.401-5.291 19.046-5.291 6.69 0 12.629 1.809 17.783 5.564 5.12 3.721 9.455 9.25 13.039 16.657l-0.887-18.227h51.814v220.228h-40.789v-171.383c0-9.284-7.646-16.896-16.964-16.896-9.284 0-16.964 7.612-16.964 16.896v171.383h-42.53v-148.548c0-18.91 0.341-31.539 0.853-37.922 0.614-6.349 2.082-12.425 4.437-18.33zM442.675 681.643c0 21.129 1.775 37.649 5.257 49.562 3.55 11.844 9.865 21.367 19.081 28.57 9.148 7.236 20.821 10.854 35.055 10.854 12.015 0 22.255-2.355 30.788-6.963 8.636-4.642 15.258-10.65 19.9-18.057 4.676-7.441 7.851-15.087 9.557-22.938 1.741-7.919 2.594-19.9 2.594-36.045v-55.706c0-20.412-0.819-35.465-2.389-44.988-1.604-9.557-4.983-18.432-10.206-26.761-5.188-8.226-11.878-14.37-19.968-18.33-8.158-3.959-17.545-5.905-28.092-5.905-11.81 0-21.743 1.638-29.935 5.018s-14.575 8.499-19.115 15.258c-4.574 6.793-7.782 15.053-9.694 24.713-1.98 9.626-2.901 24.098-2.901 43.383l0.068 58.334zM483.191 594.193c0-12.493 9.284-22.665 20.617-22.665s20.582 10.172 20.582 22.665v117.18c0 12.459-9.25 22.63-20.582 22.63-11.298 0-20.617-10.172-20.617-22.63v-117.18zM339.934 534.972h48.845l0.068 168.892 57.685 144.657h-53.385l-30.686-107.452-31.164 107.759h-52.873l61.406-145.067 0.102-168.789z" />
<glyph unicode="&#xe908;" glyph-name="iconos-09" d="M229.137 828.587h565.726c53.726 0 97.724-39.765 97.724-97.69v-565.794c0-57.89-43.998-97.69-97.724-97.69h-565.726c-53.726 0-97.724 39.799-97.724 97.69v565.794c0 57.924 43.998 97.69 97.724 97.69zM685.943 744.038c-18.876 0-34.338-15.428-34.338-34.27v-82.022c0-18.842 15.462-34.27 34.338-34.27h86.016c18.876 0 34.27 15.428 34.27 34.27v82.022c0 18.842-15.394 34.27-34.27 34.27h-86.016zM806.605 506.709h-67.004c6.281-20.651 9.728-42.598 9.728-65.297 0-126.601-105.95-229.239-236.612-229.239s-236.578 102.639-236.578 229.239c0 22.699 3.482 44.646 9.796 65.297h-69.939v-321.536c0-16.623 13.585-30.276 30.276-30.276h530.057c16.589 0 30.276 13.585 30.276 30.276v321.536zM512.717 597.811c-84.48 0-152.883-66.287-152.883-148.139s68.403-148.139 152.883-148.139c84.412 0 152.883 66.287 152.883 148.139s-68.471 148.139-152.883 148.139z" />
<glyph unicode="&#xe909;" glyph-name="iconos-10" d="M512 908.732c-255.488 0-460.732-205.244-460.732-460.732s205.244-460.732 460.732-460.732 460.732 205.244 460.732 460.732-205.244 460.732-460.732 460.732zM553.882 196.71c0-12.561-8.363-20.924-20.924-20.924h-41.882c-12.561 0-20.924 8.363-20.924 20.924v41.882c0 12.561 8.363 20.924 20.924 20.924h41.882c12.561 0 20.924-8.363 20.924-20.924v-41.882zM610.406 383.113c-29.286-25.122-50.244-41.916-56.525-64.956-2.082-10.479-10.479-16.725-20.924-16.725h-41.882c-12.561 0-23.040 10.479-20.924 23.040 8.363 60.723 52.326 94.276 87.927 123.563 37.683 29.286 58.641 48.162 58.641 83.763 0 58.675-46.080 104.721-104.687 104.721s-104.687-46.080-104.687-104.721v-12.561c2.116-10.479-4.198-20.924-14.677-23.040l-39.799-12.561c-12.561-4.198-25.122 4.198-27.238 16.759-2.116 10.479-2.116 20.924-2.116 31.403 0 104.721 83.797 188.45 188.484 188.45s188.484-83.729 188.484-188.45c0-77.517-50.244-117.282-90.078-148.685z" />
<glyph unicode="&#xe90a;" glyph-name="iconos-11" d="M751.957 486.263h-321.399v-107.179h196.062c-29.184-93.15-116.19-160.7-218.999-160.7-126.805 0-229.615 102.81-229.615 229.615s102.81 229.615 229.615 229.615c63.863 0 121.617-26.112 163.191-68.164l77.79 84.548c-62.123 60.86-147.217 98.406-241.015 98.406-190.157-0.034-344.303-154.249-344.303-344.405s154.146-344.371 344.337-344.371c166.605 0 312.457 118.306 344.337 275.456v107.179zM960.717 486.434h-65.741v65.775h-56.354v-65.775h-65.707v-56.286h65.707v-65.775h56.354v65.775h65.741z" />
<glyph unicode="&#xe90b;" glyph-name="iconos-12" d="M512 903.134c-251.358 0-455.134-203.81-455.134-455.134s203.776-455.134 455.134-455.134 455.1 203.81 455.1 455.134-203.742 455.134-455.1 455.134zM512 34.27c-228.489 0-413.73 185.207-413.73 413.73s185.242 413.73 413.73 413.73 413.73-185.207 413.73-413.73-185.242-413.73-413.73-413.73zM512 675.533c62.839 0 119.74-25.395 160.905-66.594l29.218 29.184c-48.606 48.674-115.849 78.814-190.123 78.814-148.548 0-268.937-120.457-268.937-268.937s120.388-268.937 268.937-268.937c74.274 0 141.517 30.14 190.123 78.814l-29.218 29.184c-41.165-41.131-98.065-66.594-160.905-66.594-125.679 0-227.567 101.854-227.567 227.533s101.888 227.533 227.567 227.533z" />
<glyph unicode="&#xe90c;" glyph-name="iconos-13" d="M512 888.9c-243.541 0-440.9-197.359-440.9-440.9s197.359-440.9 440.9-440.9 440.9 197.359 440.9 440.9-197.359 440.9-440.9 440.9zM722.978 412.604l-262.963-180.941c-7.339-4.983-15.872-7.578-24.371-7.578-6.895 0-13.687 1.638-20.002 4.915-14.131 7.475-23.006 22.084-23.006 38.059v361.882c0 15.94 8.875 30.583 23.006 38.059 14.131 7.407 31.164 6.383 44.373-2.697l262.963-180.907c11.639-7.987 18.603-21.265 18.603-35.396s-6.997-27.409-18.603-35.396z" />
<glyph unicode="&#xe90d;" glyph-name="iconos-14" d="M511.966 541.389c-77.346 0-140.015-62.737-140.015-140.083 0-77.414 62.669-140.083 140.015-140.083 77.414 0 140.083 62.669 140.083 140.083 0 77.346-62.669 140.083-140.083 140.083zM885.487 681.404h-112.060c-15.394 0-32.017 11.947-36.864 26.59l-29.013 86.938c-4.881 14.609-21.402 26.522-36.864 26.522h-317.406c-15.462 0-32.017-11.947-36.864-26.522l-29.013-86.938c-4.881-14.677-21.47-26.59-36.864-26.59h-112.026c-51.337 0-93.321-41.984-93.321-93.321v-420.215c0-51.337 41.984-93.321 93.321-93.321h747.008c51.337 0 93.321 41.984 93.321 93.321v420.215c0 51.302-42.018 93.321-93.355 93.321zM511.966 167.868c-128.853 0-233.404 104.55-233.404 233.472 0 128.853 104.55 233.404 233.404 233.404 128.922 0 233.472-104.55 233.472-233.404 0-128.956-104.55-233.472-233.472-233.472zM852.821 522.718c-18.057 0-32.734 14.677-32.734 32.666 0 18.057 14.677 32.734 32.734 32.734s32.666-14.677 32.666-32.734c0-17.988-14.643-32.666-32.666-32.666z" />
<glyph unicode="&#xe90e;" glyph-name="iconos-15" d="M817.323 808.858h-111.002v27.819c0 16.657-11.127 27.75-27.785 27.75s-27.75-11.059-27.75-27.75v-27.785h-277.606v27.785c0 16.657-11.059 27.75-27.785 27.75-16.589 0-27.75-11.059-27.75-27.75v-27.785h-111.036c-77.722 0-138.786-61.065-138.786-138.786v-499.678c0-77.722 61.065-138.786 138.786-138.786h610.748c77.722 0 138.854 61.065 138.854 138.786v499.644c0 77.722-61.133 138.786-138.889 138.786v0zM123.324 670.071c0 44.476 38.878 83.319 83.251 83.319h111.070v-27.785c0-16.657 11.127-27.75 27.75-27.75 16.657 0 27.785 11.059 27.785 27.75v27.785h277.606v-27.785c0-16.657 11.127-27.75 27.75-27.75 16.725 0 27.785 11.059 27.785 27.75v27.785h111.002c44.476 0 83.319-38.878 83.319-83.319v-83.251h-777.318v83.251zM900.676 170.394c0-44.407-38.878-83.251-83.319-83.251h-610.748c-44.407 0-83.251 38.878-83.251 83.251v360.858h777.318v-360.858zM262.144 170.394c16.657 0 27.785 5.53 38.878 16.657 11.127 11.059 16.657 27.75 16.657 38.878 0 11.059-5.53 27.75-16.657 38.878-22.187 22.187-55.535 22.187-77.722 0-11.059-11.127-16.657-22.187-16.657-38.878 0-11.127 5.598-27.785 16.657-38.878 11.093-11.127 22.153-16.657 38.844-16.657zM262.144 336.93c16.657 0 27.785 5.598 38.878 16.657 11.127 11.127 16.657 27.785 16.657 38.878 0 11.127-5.53 27.785-16.657 38.878-22.187 22.187-55.535 22.187-77.722 0-11.059-11.059-16.657-22.187-16.657-38.878s5.598-27.75 16.657-38.878c11.093-11.059 22.153-16.657 38.844-16.657zM428.749 170.394c16.589 0 27.75 5.53 38.878 16.657 11.059 11.059 16.589 27.75 16.589 38.878 0 11.059-5.53 27.75-16.589 38.878-22.187 22.187-55.535 22.187-77.722 0-11.127-11.127-16.657-27.785-16.657-38.878 0-11.127 5.53-27.785 16.657-38.878 11.025-11.127 22.153-16.657 38.844-16.657zM428.749 336.93c16.589 0 27.75 5.598 38.878 16.657 11.059 11.127 16.589 27.785 16.589 38.878 0 11.127-5.53 27.785-16.589 38.878-22.187 22.187-55.535 22.187-77.722 0-11.127-11.059-16.657-27.75-16.657-38.878 0-11.059 5.53-27.75 16.657-38.878 11.025-11.059 22.153-16.657 38.844-16.657zM595.251 170.394c16.657 0 27.785 5.53 38.878 16.657 11.127 11.059 16.657 22.187 16.657 38.878s-5.53 27.75-16.657 38.878c-22.187 22.187-55.535 22.187-77.722 0-11.059-11.127-16.657-27.785-16.657-38.878 0-11.127 5.598-27.785 16.657-38.878 11.127-11.127 22.187-16.657 38.844-16.657zM595.251 336.93c16.657 0 27.785 5.598 38.878 16.657 11.127 11.127 16.657 22.187 16.657 38.878 0 11.127-5.53 27.785-16.657 38.878-22.187 22.187-55.535 22.187-77.722 0-11.059-11.059-16.657-27.75-16.657-38.878 0-11.059 5.598-27.75 16.657-38.878 11.127-11.059 22.187-16.657 38.844-16.657zM761.856 170.394c16.589 0 27.75 5.53 38.878 16.657 11.059 11.059 16.589 27.75 16.589 38.878 0 11.059-5.53 27.75-16.589 38.878-22.255 22.187-55.535 22.187-77.722 0-11.127-11.127-16.657-22.187-16.657-38.878 0-11.127 5.53-27.785 16.657-38.878 11.059-11.127 22.187-16.657 38.844-16.657zM761.856 336.93c16.589 0 27.75 5.598 38.878 16.657 11.059 11.127 16.589 22.187 16.589 38.878 0 11.127-5.53 27.785-16.589 38.878-22.255 22.187-55.535 22.187-77.722 0-11.127-11.059-16.657-27.75-16.657-38.878 0-11.059 5.53-27.75 16.657-38.878 11.059-11.059 22.187-16.657 38.844-16.657z" />
<glyph unicode="&#xe90f;" glyph-name="iconos-16" d="M498.074 197.803h-283.989c-5.461 0-9.933 4.471-9.933 9.933v539.58c0 5.495 4.471 9.933 9.933 9.933h405.197c5.461 0 9.933-4.437 9.933-9.933v-71.475h72.26v104.243c0 26.317-21.333 47.616-47.616 47.616h-474.385c-26.283 0-47.616-21.299-47.616-47.616v-664.201c0-26.317 21.333-47.616 47.616-47.616h329.728c-6.861 13.073-11.127 27.682-11.127 43.383v86.153zM416.666 103.117c-16.589 0-30.071 13.483-30.071 30.071s13.483 30.071 30.071 30.071 30.071-13.483 30.071-30.071-13.483-30.071-30.071-30.071zM848.725 625.186h-256.614c-23.996 0-43.383-19.422-43.383-43.383v-470.084c0-23.962 19.388-43.383 43.383-43.383h256.614c23.927 0 43.383 19.422 43.383 43.383v470.084c0.034 23.962-19.456 43.383-43.383 43.383zM720.384 92.843c-15.121 0-27.409 12.254-27.409 27.409s12.254 27.443 27.409 27.443 27.409-12.254 27.409-27.443c0-15.155-12.254-27.409-27.409-27.409zM843.537 175.479c0-4.983-3.994-9.079-9.011-9.079h-228.215c-4.983 0-9.079 4.062-9.079 9.079v394.479c0 5.018 4.062 9.045 9.079 9.045h228.215c4.983 0 9.011-3.994 9.011-9.045v-394.479z" />
<glyph unicode="&#xe910;" glyph-name="iconos-17" d="M809.062-3.277c6.349-6.349 14.336-9.523 23.074-9.523s16.657 3.209 23.006 9.523c12.732 12.732 12.732 33.417 0 46.148l-405.129 405.129 405.129 405.129c12.732 12.732 12.732 33.417 0 46.080-12.663 12.663-33.348 12.663-46.080 0l-428.203-428.203c-12.663-12.663-12.663-33.348 0-46.080l428.203-428.203zM596.992-3.277c6.417-6.349 14.336-9.523 23.074-9.523s16.657 3.209 23.074 9.523c12.663 12.732 12.663 33.417 0 46.148l-405.197 405.129 405.197 405.129c12.663 12.732 12.663 33.417 0 46.080-12.732 12.663-33.417 12.663-46.148 0l-428.134-428.203c-12.732-12.663-12.732-33.348 0-46.080l428.134-428.203z" />
<glyph unicode="&#xe911;" glyph-name="iconos-18" d="M214.938-3.277c-6.349-6.315-14.336-9.523-23.074-9.523s-16.657 3.209-23.006 9.523c-12.732 12.732-12.732 33.417 0 46.148l405.129 405.129-405.129 405.129c-12.732 12.732-12.732 33.417 0 46.080 12.663 12.663 33.348 12.663 46.080 0l428.203-428.203c12.663-12.663 12.663-33.348 0-46.080l-428.203-428.203zM427.008-3.277c-6.417-6.349-14.336-9.523-23.074-9.523s-16.657 3.209-23.074 9.523c-12.663 12.732-12.663 33.417 0 46.148l405.197 405.129-405.197 405.129c-12.663 12.732-12.663 33.417 0 46.080 12.732 12.663 33.417 12.663 46.148 0l428.134-428.203c12.732-12.663 12.732-33.348 0-46.080l-428.134-428.203z" />
<glyph unicode="&#xe912;" glyph-name="iconos-19" d="M512.068 522.786c41.267 0 74.718-33.485 74.718-74.786s-33.451-74.786-74.718-74.786c-41.335 0-74.786 33.485-74.786 74.786s33.451 74.786 74.786 74.786zM928.154 522.103l-104.516 19.593c-6.349 21.129-14.677 41.404-24.951 60.484l60.45 88.405c5.564 8.192 4.437 20.48-2.594 27.477l-74.547 74.615c-6.997 6.997-19.285 8.124-27.477 2.526l-88.439-60.484c-19.627 10.615-40.55 19.081-62.327 25.498l-19.49 103.936c-1.843 9.762-11.298 17.681-21.231 17.681h-105.472c-9.899 0-19.388-7.885-21.265-17.681l-19.661-104.96c-20.89-6.383-40.96-14.711-59.836-24.951l-87.313 59.733c-8.192 5.564-20.48 4.403-27.477-2.594l-74.615-74.615c-6.997-6.997-8.124-19.251-2.56-27.477l60.143-87.859c-10.138-18.876-18.33-38.912-24.61-59.767l-104.516-19.558c-9.728-1.877-17.613-11.332-17.613-21.265v-105.438c0-9.933 7.851-19.422 17.613-21.265l104.448-19.593c6.383-21.299 14.78-41.779 25.122-60.962l-59.426-86.903c-5.598-8.158-4.471-20.48 2.56-27.443l74.581-74.581c6.997-7.031 19.285-8.158 27.477-2.594l86.869 59.392c18.705-10.069 38.502-18.295 59.187-24.644l19.661-105.028c1.877-9.728 11.366-17.613 21.265-17.613h105.472c9.933 0 19.388 7.851 21.265 17.613l19.456 103.97c21.572 6.383 42.257 14.78 61.747 25.156l87.893-60.211c8.192-5.598 20.514-4.437 27.511 2.594l74.547 74.547c7.031 7.031 8.124 19.285 2.594 27.477l-59.836 87.45c10.581 19.456 19.046 40.175 25.532 61.781l104.414 19.558c9.728 1.877 17.579 11.332 17.579 21.299v105.404c0.068 9.967-7.817 19.422-17.613 21.299zM512.068 267.059c-99.942 0-180.975 80.998-180.975 180.975 0 99.908 81.033 180.907 180.975 180.907 99.908 0 180.975-80.998 180.975-180.907 0-99.977-81.101-180.975-180.975-180.975z" />
<glyph unicode="&#xe913;" glyph-name="iconos-20" d="M837.154 583.134h-650.547c-94.583-5.325-105.506-109.636-93.901-144.043l74.752-329.045c11.196-49.766 49.903-84.48 93.901-84.48h501.043c44.032 0 82.739 34.714 93.935 84.48l74.752 329.045c15.394 43.554-13.278 144.043-93.935 144.043zM372.565 187.597c0-19.558-15.735-35.26-35.226-35.26-19.524 0-35.226 15.701-35.226 35.26v219.921c0 19.49 15.701 35.191 35.226 35.191 19.49 0 35.226-15.701 35.226-35.191v-219.921zM542.959 187.597c0-19.558-15.701-35.26-35.191-35.26-19.524 0-35.226 15.701-35.226 35.26v219.921c0 19.49 15.701 35.191 35.226 35.191 19.49 0 35.191-15.701 35.191-35.191v-219.921zM713.353 187.597c0-19.558-15.735-35.26-35.191-35.26-19.524 0-35.26 15.701-35.26 35.26v219.921c0 19.49 15.735 35.191 35.26 35.191 19.456 0 35.191-15.701 35.191-35.191v-219.921zM511.898 800.119c81.306 0 150.699-60.45 178.825-145.545h73.25c-31.983 124.484-132.608 215.791-252.075 215.791-119.501 0-219.989-91.307-252.109-215.791h73.045c28.331 85.129 97.758 145.545 179.063 145.545z" />
<glyph unicode="&#xe914;" glyph-name="iconos-21" d="M511.966 21.333c46.933 0 85.333 38.4 85.333 85.333h-170.667c0-46.933 38.468-85.333 85.333-85.333zM789.299 277.333v234.667c0 132.267-89.532 238.933-213.333 268.8v29.867c0 34.133-29.867 64-64 64-34.065 0-63.932-29.867-63.932-64v-29.867c-123.802-29.867-213.333-136.533-213.333-268.8v-234.667l-85.402-85.333v-42.667h725.402v42.667l-85.402 85.333z" />
<glyph unicode="&#xe915;" glyph-name="iconos-22" d="M969.387 394.786l-14.575 19.729c-15.701 21.743-16.077 51.029-0.614 72.738l14.165 20.002c21.743 30.618 11.674 73.284-21.504 90.931l-21.743 11.674c-23.654 12.595-36.454 38.98-32.017 65.331l4.062 24.235c6.246 37.069-21.333 71.168-58.982 72.738l-24.405 0.956c-26.761 1.161-49.835 19.217-57.207 44.954l-6.793 23.654c-10.479 36.079-50.039 54.716-84.582 39.97l-22.494-9.694c-24.644-10.684-53.111-4.267-71.168 15.701l-16.179 18.261c-25.225 28.092-69.052 27.716-93.662-0.58l-16.111-18.432c-17.647-20.173-46.182-26.965-70.793-16.657l-22.699 9.25c-34.714 14.404-74.069-4.983-83.934-41.301l-6.417-23.654c-6.997-25.771-29.867-44.203-56.593-45.773l-24.474-1.331c-37.41-2.116-64.58-36.659-57.788-73.489l4.506-24.030c4.847-26.351-7.782-52.77-31.027-65.775l-21.572-11.81c-32.802-18.227-42.257-61.099-20.173-91.341l14.541-19.797c15.701-21.709 16.145-50.995 0.614-72.738l-14.165-19.968c-21.743-30.618-11.639-73.284 21.504-90.965l21.743-11.605c23.654-12.595 36.489-38.98 32.017-65.365l-4.062-24.235c-6.212-37.035 21.333-71.168 58.982-72.738l24.439-0.956c26.726-1.161 49.835-19.217 57.207-44.988l6.793-23.654c10.445-36.079 50.039-54.682 84.548-39.936l22.494 9.694c24.644 10.684 53.146 4.267 71.168-15.701l16.316-18.227c24.986-27.921 68.847-27.546 93.457 0.751l16.111 18.432c17.681 20.173 46.182 26.965 70.758 16.657l22.699-9.284c34.714-14.37 74.069 5.018 83.968 41.301l6.417 23.654c6.963 25.805 29.833 44.237 56.593 45.773l24.439 1.365c37.444 2.116 64.58 36.659 57.788 73.489l-4.471 24.030c-4.881 26.351 7.748 52.736 31.027 65.741l21.504 11.844c32.973 18.057 42.462 60.894 20.343 91.17zM627.507 288.905c-17.681-21.333-40.55-35.669-67.14-43.076-11.605-3.106-16.828-9.284-16.282-21.333 0.58-11.81 0-23.825 0-35.669 0-10.684-5.393-16.316-15.906-16.452-12.8-0.444-25.6-0.444-38.4 0-11.23 0.171-16.486 6.554-16.657 17.442-0.205 8.738-0.205 17.442-0.205 25.975-0.205 19.217-0.751 20.002-19.217 22.903-23.654 3.652-46.729 9.148-68.267 19.593-16.862 8.124-18.603 12.39-13.756 30.242 3.686 13.21 7.202 26.556 11.469 39.561 4.847 15.121 8.909 17.067 22.869 9.899 23.859-12.425 49.254-19.388 75.844-22.699 17.033-2.15 33.894-0.375 49.835 6.588 29.662 13.005 34.338 47.343 9.284 67.857-8.533 6.997-18.227 12.22-28.297 16.657-26.010 11.469-53.18 20.173-77.551 34.918-39.799 23.825-64.956 56.422-62.054 104.892 3.311 54.682 34.304 88.815 84.343 107.076 20.753 7.578 20.753 7.168 20.958 28.911v21.914c0.375 16.282 3.072 19.217 19.388 19.558 5.018 0.205 10.069 0 15.087 0 34.509 0 34.509 0 34.748-34.509 0.205-24.439 0-24.644 24.405-28.297 18.671-2.935 36.489-8.533 53.76-16.145 9.455-4.267 13.175-10.82 10.24-20.924-4.267-14.95-8.294-30.071-13.175-44.817-4.471-13.926-8.943-16.111-22.46-9.455-26.999 12.971-55.296 18.398-85.163 16.862-7.782-0.444-15.497-1.57-22.699-4.676-25.771-11.23-30.037-39.765-7.919-57.242 11.059-8.909 23.859-15.292 37.035-20.719 22.903-9.489 45.773-18.432 67.516-30.481 68.437-38.537 87.040-125.201 38.366-184.354z" />
<glyph unicode="&#xe916;" glyph-name="iconos-23" d="M511.898 926.822c-264.363 0-478.72-214.391-478.72-478.857 0-264.397 214.357-478.788 478.72-478.788 264.533 0 478.925 214.426 478.925 478.788 0 264.465-214.391 478.857-478.925 478.857zM717.79 318.293l-76.254-76.117c0 0-120.627 129.468-129.673 129.468-8.841 0-129.57-129.468-129.57-129.468l-76.254 76.117c0 0 129.604 118.886 129.604 129.502 0 10.752-129.604 129.707-129.604 129.707l76.254 76.322c0 0 121.685-129.536 129.57-129.536 7.953 0 129.673 129.536 129.673 129.536l76.254-76.322c0 0-129.604-120.627-129.604-129.707 0-8.602 129.604-129.502 129.604-129.502z" />
<glyph unicode="&#xe917;" glyph-name="iconos-24" d="M512 926.822c-265.523 0-478.822-213.299-478.822-478.822s213.299-478.822 478.822-478.822 478.822 213.299 478.822 478.822-213.299 478.822-478.822 478.822zM788.446 598.153v0l-348.262-361.267c-4.369-4.369-8.704-6.554-15.223-6.554s-13.073 2.185-15.223 6.554l-169.813 182.784-4.369 4.369c-4.369 4.369-6.485 10.889-6.485 15.258 0 4.335 2.15 10.854 6.485 15.223l30.515 30.481c8.67 8.704 21.777 8.704 30.481 0l2.15-2.15 119.706-128.444c4.335-4.369 10.889-4.369 15.258 0l291.635 302.558h2.15c8.704 8.704 21.811 8.704 30.481 0l30.515-30.515c8.704-6.485 8.704-19.558 0-28.297z" />
<glyph unicode="&#xe918;" glyph-name="iconos-25" d="M916.002 908.8h-316.86c-31.334 0-56.832-25.463-56.832-56.798 0-31.3 25.498-56.798 56.832-56.798h179.746l-299.861-299.861c-10.684-10.684-16.623-24.986-16.623-40.175s5.939-29.423 16.623-40.141c10.718-10.718 24.986-16.657 40.175-16.657s29.423 5.939 40.175 16.623l299.861 299.861v-179.746c0-31.334 25.498-56.832 56.798-56.832 31.334 0 56.798 25.498 56.798 56.832v316.894c-0.034 31.334-25.498 56.798-56.832 56.798zM704.102 84.582h-555.52v555.52h417.792l97.382 97.382h-563.849c-26.897-0.034-48.708-21.811-48.708-48.708v-652.868c0-26.897 21.811-48.708 48.708-48.708h652.868c26.897 0 48.708 21.811 48.708 48.708v563.814l-97.382-97.382v-417.758z" />
<glyph unicode="&#xe919;" glyph-name="triangle-down" d="M256 665.6h512l-256-460.8-256 460.8z" />
<glyph unicode="&#xe91a;" glyph-name="iconos-28" d="M963.243 745.062c6.349 6.349 9.523 14.336 9.523 23.074s-3.209 16.657-9.523 23.006c-12.732 12.732-33.417 12.732-46.148 0l-405.129-405.129-405.129 405.129c-12.732 12.732-33.417 12.732-46.080 0-12.663-12.663-12.663-33.348 0-46.080l428.203-428.203c12.663-12.663 33.348-12.663 46.080 0l428.203 428.203zM963.243 532.992c6.349 6.417 9.523 14.336 9.523 23.074s-3.209 16.657-9.523 23.074c-12.732 12.663-33.417 12.663-46.148 0l-405.129-405.197-405.129 405.197c-12.732 12.663-33.417 12.663-46.080 0-12.663-12.732-12.663-33.417 0-46.148l428.203-428.134c12.663-12.732 33.348-12.732 46.080 0l428.203 428.134z" />
<glyph unicode="&#xe91b;" glyph-name="iconos-26" d="M916.514 780.561h-304.708v-99.191h100.796v-67.55h-100.796v-66.014h99.738v-66.56h-99.738v-66.492h99.738v-66.526h-99.738v-66.492h99.738v-66.526h-99.738v-99.738h304.708c15.326 0 27.853 13.005 27.853 28.945v607.232c0 15.906-12.527 28.911-27.853 28.911zM877.875 215.177h-133.018v66.526h133.018v-66.526zM877.875 348.194h-133.018v66.526h133.018v-66.526zM877.875 481.246h-133.018v66.56h133.018v-66.56zM877.875 614.298h-133.018v66.526h133.018v-66.526zM79.633 784.316v-672.631l498.859-96.017v864.7l-498.859-96.051zM395.162 279.074l-57.993 109.705c-2.185 4.096-4.471 11.605-6.827 22.562h-0.922c-1.058-5.154-3.686-13.005-7.782-23.518l-58.266-108.749h-90.385l107.383 168.414-98.236 168.448h92.331l48.128-101.035c3.789-7.953 7.134-17.442 10.138-28.399h0.922c1.911 6.588 5.393 16.384 10.581 29.355l53.555 100.113h84.548l-101.001-167.049 103.834-169.882h-90.010z" />
<glyph unicode="&#xe91c;" glyph-name="iconos-27" d="M319.113 516.574c-8.397-0.137-13.756-0.956-16.93-1.775v-111.036c3.174-0.819 8.294-0.887 12.971-0.99 34.27-0.922 57.003 18.193 57.003 59.563 0.239 36.045-20.48 54.716-53.043 54.238zM606.857 91.238c1.126-0.068 2.253-0.171 3.447-0.171h261.086c30.549 0 55.364 24.883 55.364 55.398v605.286c0 30.549-24.849 55.364-55.364 55.364h-261.086c-1.161 0-2.287-0.102-3.447-0.137v72.26l-509.611-68.028v-724.651l509.645-69.769v74.445zM871.39 122.709h-261.086c-1.195 0-2.287 0.205-3.447 0.375v237.466c54.409 9.421 129.98 16.521 195.311 1.195l7.748-14.985c31.198-59.017 64.546-58.607 77.38-55.706 2.97 0.683 4.574 1.399 4.574 1.399l1.741 0.922c0.614 0.375 1.024 0.819 1.57 1.229v-148.173c-0.034-13.073-10.684-23.723-23.791-23.723zM629.043 388.71c40.858 49.869 73.899 96.393 95.198 127.966l0.068-0.205 0.239 0.375c16.691-35.191 44.237-89.702 63.215-126.874h-0.068l0.683-1.229c-53.931 9.216-111.821 5.837-159.471-0.717l0.717 0.819-0.58-0.137zM725.197 621.397c1.638 2.867 4.028 3.652 8.294 3.482 0.102 0 8.636-0.58 11.81-6.417 1.946-3.482 4.779-14.541-10.308-41.438h-0.034c0 0-1.946-3.277-5.598-9.114-8.431 29.696-7.885 46.967-4.164 53.487zM834.082 351.983c15.462-5.939 29.355-13.278 41.54-21.948 3.516-4.983 6.724-12.083 6.144-15.462 0-0.171-0.034-0.341-0.171-0.512-4.983-0.853-24.849-1.502-47.514 37.922zM610.304 775.509h261.086c13.107 0 23.723-10.65 23.723-23.757v-408.235c-0.717 1.058-1.365 1.946-1.775 2.423l-0.99 1.263-1.297 0.99c-20.275 14.78-44.715 26.18-72.67 33.86-19.934 38.98-61.235 120.149-78.609 158.14 10.069 15.497 15.428 24.508 15.701 24.917 15.667 27.887 19.115 49.732 10.445 65.092-7.851 13.892-23.484 18.057-31.505 18.364-12.902 0.614-23.893-4.949-29.901-15.462-9.148-16.077-7.236-44.237 5.666-83.593 0.546-1.843 1.468-4.164 2.662-7.1-20.617-31.232-58.061-85.265-106.018-143.258v376.013c1.195 0.137 2.287 0.341 3.482 0.341zM227.738 452.915c-12.049-11.947-29.764-17.169-50.21-16.964-4.471 0-8.567 0.273-11.708 0.785v-58.163l-33.451 0.922v158.822c10.342 2.15 24.951 3.891 45.841 4.437 21.367 0.546 36.83-3.55 47.241-12.083 10.069-8.192 16.828-21.948 16.828-38.263s-5.154-30.14-14.541-39.492zM384.853 393.182c-18.057-14.746-45.227-21.163-77.824-20.275-19.217 0.58-32.7 2.15-41.813 3.652v164.83c13.449 2.56 31.061 4.198 49.903 4.71 31.778 0.751 52.668-4.642 69.257-16.93 17.988-13.141 29.423-34.577 29.423-65.57 0.034-33.553-12.151-56.525-28.945-70.417zM440.149 547.806l112.572 2.662v-33.86l-71.612-1.024v-40.823l66.867 0.171v-33.553l-66.867 0.512v-71.953l-40.96 1.161v176.708zM180.019 514.935c-6.963-0.102-11.708-0.887-14.199-1.673v-48.026c2.935-0.717 6.485-0.956 11.503-0.956 18.364 0 29.833 10.001 29.833 26.897 0 15.121-9.865 24.030-27.136 23.757z" />
<glyph unicode="&#xe91d;" glyph-name="iconos-29" d="M528.418 864.188c-218.658 0-395.947-177.289-395.947-395.981 0-69.018 17.749-133.871 48.811-190.362l-79.053-195.584c-5.53-13.653-2.321-29.252 8.055-39.697 10.411-10.411 26.078-13.585 39.731-8.090l199.817 80.691c53.692-27.238 114.313-42.906 178.586-42.906 218.726 0 396.015 177.254 396.015 395.981 0 218.658-177.254 395.947-396.015 395.947zM586.615 234.564h-128.273v113.118h128.273v-113.118zM691.234 520.738c-9.899-16.623-30.071-36.898-60.518-60.826-21.163-16.794-34.645-30.31-40.141-40.516-5.598-10.206-8.363-23.484-8.363-39.868h-119.774v11.981c0 20.378 2.253 36.932 6.929 49.63 4.608 12.732 11.503 24.303 20.651 34.85 9.114 10.513 29.628 29.013 61.611 55.467 17.033 13.858 25.532 26.556 25.532 38.127s-3.413 20.548-10.24 26.931-17.203 9.626-31.061 9.626c-14.95 0-27.273-4.949-37.069-14.848-9.762-9.865-15.974-27.102-18.739-51.678l-122.266 15.121c4.233 44.919 20.548 81.135 49.015 108.578 28.501 27.443 72.090 41.131 130.97 41.131 45.807 0 82.773-9.557 110.933-28.706 38.195-25.839 57.344-60.314 57.344-103.356 0-17.852-4.949-35.089-14.814-51.644z" />
<glyph unicode="&#xe91e;" glyph-name="iconos-30" d="M528.418 864.188c-218.658 0-395.947-177.289-395.947-396.015 0-68.983 17.749-133.871 48.811-190.327l-79.053-195.584c-5.53-13.653-2.321-29.286 8.055-39.697 10.411-10.445 26.078-13.619 39.731-8.090l199.817 80.691c53.692-27.273 114.313-42.906 178.586-42.906 218.726 0 396.015 177.254 396.015 395.947s-177.254 395.981-396.015 395.981zM528.009 704.546c38.502 0 69.7-31.198 69.7-69.666 0-38.502-31.198-69.7-69.7-69.7-38.468 0-69.666 31.198-69.666 69.7 0 38.468 31.198 69.666 69.666 69.666zM598.391 264.158c0-17.818-14.473-32.29-32.29-32.29h-76.117c-17.852 0-32.29 14.473-32.29 32.29v266.24c20.070-13.551 44.339-21.504 70.349-21.504 26.078 0 50.313 7.919 70.417 21.504v-266.24h-0.068z" />
<glyph unicode="&#xe91f;" glyph-name="menu" d="M128 682.667h768v-86h-768v86zM128 384.667v84h768v-84h-768zM128 170.667v86h768v-86h-768z" />
<glyph unicode="&#xe920;" glyph-name="cancel" d="M983.072 743.232l-294.304-296.096 294.304-294.336c12.32-12.288 12.32-32.224 0-44.544l-133.632-133.6c-12.256-12.32-32.192-12.32-44.512 0l-293.824 293.824-292.064-293.824c-12.288-12.32-32.224-12.32-44.544 0l-133.6 133.6c-12.288 12.32-12.288 32.256 0 44.544l292.064 293.824-292.032 292.032c-12.288 12.288-12.288 32.224 0 44.544l133.6 133.6c12.288 12.32 32.224 12.32 44.544 0l291.52-291.52 294.368 296.096c12.32 12.32 32.256 12.32 44.512 0l133.632-133.6c12.256-12.32 12.256-32.256-0.032-44.544z" />
<glyph unicode="&#xe921;" glyph-name="iconos-31" d="M512.205 913.101c96.085 0 174.046-77.892 174.046-174.046 0-96.051-77.926-174.012-174.046-174.012s-174.012 77.961-174.012 174.012c0 96.154 77.892 174.046 174.012 174.046zM688.196 506.88h-2.15l-7.441-96.563c-1.058-13.483-10.889-24.678-24.166-27.375l-55.364-11.264 13.551-40.209c2.662-7.748 2.048-16.213-1.673-23.484 0 0-53.794-105.301-71.748-140.356-0.034-0.102-8.841-13.961-26.351-13.961-21.641 0-27.511 13.858-27.546 13.961-17.954 35.055-71.748 140.356-71.748 140.356-3.686 7.305-4.335 15.77-1.741 23.484l13.619 40.175-55.433 11.264c-13.278 2.628-23.142 13.824-24.132 27.307l-7.475 96.597h-2.082c-120.457 0-218.078-97.621-218.078-218.044v-244.77c0-33.792 27.341-61.099 61.065-61.099h665.395c33.724 0 61.065 27.307 61.065 61.099v245.385c-0.137 120.115-97.451 217.498-217.566 217.498zM766.089 88.678h-45.943v-45.124c0-16.759-13.414-30.276-30.106-30.276s-30.106 13.517-30.106 30.276v45.124h-45.158c-16.691 0-30.242 13.414-30.242 30.106s13.517 30.106 30.242 30.106h45.158v45.978c0 16.725 13.414 30.31 30.106 30.31s30.106-13.551 30.106-30.31v-45.978h45.943c16.691 0 30.276-13.414 30.276-30.106s-13.551-30.106-30.276-30.106zM553.267 424.175l66.731 13.551 5.325 69.12h-226.236l5.291-69.12 66.731-13.551c8.567-1.741 15.906-7.031 20.241-14.609 4.301-7.509 5.222-16.555 2.423-24.781l-20.548-60.587 38.946-76.288 38.98 76.288-20.582 60.587c-2.765 8.192-1.911 17.271 2.423 24.781 4.403 7.578 11.776 12.868 20.275 14.609z" />
<glyph unicode="&#xe922;" glyph-name="iconos-32" d="M731.238 822.238c-60.553 60.553-133.632 90.863-219.238 90.863-85.572 0-158.652-30.31-219.238-90.863-60.518-60.553-90.829-133.632-90.829-219.204 0-43.998 6.656-80.145 20.002-108.407l221.047-468.719c6.076-13.312 15.462-23.791 28.16-31.471 12.698-7.714 26.317-11.537 40.892-11.537 14.507 0 28.126 3.823 40.823 11.537 12.766 7.68 22.323 18.159 28.774 31.471l220.433 468.719c13.346 28.262 20.002 64.41 20.002 108.407 0 85.572-30.276 158.618-90.829 219.204zM621.636 493.397c-30.31-30.242-66.833-45.363-109.636-45.363s-79.326 15.121-109.636 45.363c-30.276 30.31-45.397 66.833-45.397 109.636s15.121 79.326 45.397 109.602c30.31 30.31 66.867 45.431 109.636 45.431 42.803 0 79.326-15.121 109.636-45.431 30.276-30.276 45.397-66.799 45.397-109.602s-15.121-79.292-45.397-109.636z" />
<glyph unicode="&#xe923;" glyph-name="iconos-33" d="M387.072 418.884h95.881v-95.846h-95.881v95.846zM541.082 418.884h95.881v-95.846h-95.881v95.846zM387.072 572.928h95.881v-95.846h-95.881v95.846zM541.082 572.928h95.881v-95.846h-95.881v95.846zM387.072 726.972h95.881v-95.846h-95.881v95.846zM541.082 726.972h95.881v-95.846h-95.881v95.846zM304.64 813.022v-730.078h159.437v163.055h95.881v-163.055h159.437v730.078h-414.754zM801.041 388.847h87.279v-87.313h-87.279v87.313zM801.041 529.033h87.279v-87.245h-87.279v87.245zM801.041 669.286h87.279v-87.279h-87.279v87.279zM756.634 747.622v-516.198h61.542v-148.48h145.203v664.678h-206.746zM135.714 388.847h87.279v-87.313h-87.279v87.313zM135.714 529.033h87.279v-87.245h-87.279v87.245zM135.714 669.286h87.279v-87.279h-87.279v87.279zM60.621 747.622v-664.678h145.203v148.48h61.542v516.198h-206.746z" />
<glyph unicode="&#xe924;" glyph-name="iconos-35" d="M514.15 672.017c-0.717 0-1.468 0-2.185 0-122.743 0.034-222.788-98.884-223.949-221.901-1.195-123.699 98.133-224.939 221.867-226.133 123.733-1.126 225.007 98.202 226.133 221.901 1.195 123.733-98.202 224.973-221.867 226.133zM512 334.609c-0.341 0-0.717 0-1.058 0-62.669 0.614-112.947 51.883-112.333 114.483 0.546 62.635 51.814 112.947 114.483 112.367 62.669-0.614 112.947-51.883 112.333-114.483-0.546-62.259-51.302-112.367-113.425-112.367zM512 888.388c-0.683 0-1.399-0.034-2.082-0.034v0.034h-438.306v-440.388c0-243.234 197.188-440.388 440.388-440.388 243.268 0 440.388 197.154 440.388 440.388 0 243.2-197.12 440.388-440.388 440.388zM515.277 145.442c-0.99 0-1.946 0-2.935 0.034-168.858 1.57-304.469 139.776-302.865 308.599 1.604 168.858 139.81 304.469 308.599 302.865 168.858-1.604 304.469-139.776 302.933-308.634-1.604-167.834-138.206-302.831-305.732-302.865z" />
<glyph unicode="&#xe925;" glyph-name="iconos-34" d="M919.484 685.773h-221.013v95.437c0 17.613-14.268 31.846-31.778 31.846h-298.769c-17.613 0-31.846-14.234-31.846-31.846v-95.437h-233.335c-37.103 0-60.075-19.456-60.075-47.718v-56.559h938.667v52.087c0 27.409-21.197 52.19-61.85 52.19zM634.846 685.773h-235.11v63.625h235.11v-63.625zM46.217 125.372c0-24.747 12.288-42.394 42.394-42.394h846.677c30.106 0 42.428 24.303 42.428 42.394v422.502h-931.499v-422.502zM512 481.109c91.546 0 165.717-74.138 165.717-165.683s-74.206-165.717-165.717-165.717c-91.58 0-165.683 74.206-165.683 165.717 0 91.546 74.103 165.683 165.683 165.683zM476.467 206.711h71.031v73.114h73.216v71.134h-73.216v73.182h-71.031v-73.182h-73.216v-71.134h73.216z" />
<glyph unicode="&#xe926;" glyph-name="iconos-36" d="M-836.275-432.806l-880.783 880.783 880.783 880.783 880.783-880.783-880.783-880.783zM347.409 168.789c0 62.839-51.132 113.971-113.971 113.971-62.805 0-113.903-51.132-113.903-113.971s51.098-113.903 113.903-113.903c62.839 0 113.971 51.063 113.971 113.903zM132.335 411.307c91.409 0 177.391-35.738 242.074-100.659 64.717-65.024 100.318-151.62 100.318-243.849 0-6.997 5.7-12.698 12.698-12.698h146.125c7.031 0 12.698 5.7 12.698 12.698 0 284.57-230.537 516.096-513.946 516.096-7.031 0-12.732-5.7-12.732-12.698v-146.193c0.068-6.997 5.734-12.698 12.766-12.698zM132.54 842.001c-7.031 0-12.732-5.7-12.732-12.698v-146.159c0-7.031 5.7-12.698 12.732-12.698 331.059 0 600.439-270.848 600.439-603.75 0-6.997 5.666-12.698 12.698-12.698h146.091c6.997 0 12.698 5.7 12.698 12.698 0 427.52-346.283 775.305-771.925 775.305z" />
<glyph unicode="&#xe927;" glyph-name="iconos-37" d="M856.508 735.061h-114.825l-114.825 114.825h-229.683l-114.859-114.825h-114.825c0 0-114.825 0-114.825-114.825v-344.474c0-114.825 114.825-114.825 114.825-114.825h330.684c46.319-69.222 125.167-114.825 214.733-114.825 111.241 0.068 205.722 70.451 242.176 169.062 16.043 29.696 16.247 60.587 16.247 60.587v344.474c0 114.825-114.825 114.825-114.825 114.825zM455.543 285.525c-67.379 23.347-115.78 87.108-115.78 162.475 0 95.061 77.039 172.237 172.237 172.237 54.955 0 103.561-26.078 135.1-66.15-110.729-29.15-192.512-129.707-192.512-249.617 0-6.451 0.512-12.629 0.956-18.944zM712.943 106.871c-109.090 0.239-197.393 88.542-197.632 197.564 0.239 109.124 88.542 197.393 197.632 197.666 109.056-0.273 197.325-88.542 197.598-197.666-0.273-109.022-88.542-197.325-197.598-197.564zM741.717 448h-57.481v-114.825h-114.79v-57.412h114.79v-114.825h57.481v114.825h114.79v57.412h-114.79z" />
<glyph unicode="&#xe928;" glyph-name="iconos-38" d="M872.96 767.932h-721.92c-36.181 0-65.707-29.525-65.707-65.741v-508.416c0-36.181 29.525-65.741 65.707-65.741h721.92c36.181 0 65.707 29.559 65.707 65.741v508.416c0 36.215-29.525 65.741-65.707 65.741zM863.437 719.292l-346.931-296.653-346.897 296.653h693.828zM890.061 193.809c0-9.353-7.748-17.101-17.101-17.101h-721.92c-9.353 0-17.101 7.748-17.101 17.101v492.032l366.729-313.617c0.171-0.205 0.546-0.41 0.717-0.58 0.205-0.171 0.58-0.341 0.717-0.546 0.546-0.375 0.887-0.717 1.434-0.887 0.205-0.205 0.375-0.205 0.546-0.375 0.717-0.341 1.468-0.717 2.185-1.058 0.171 0 0.341-0.171 0.512-0.171 0.58-0.205 1.092-0.58 1.809-0.717 0.205 0 0.58-0.171 0.717-0.171 0.58-0.205 1.058-0.41 1.638-0.41 0.171 0 0.546-0.171 0.717-0.171 0.512-0.171 1.229-0.171 1.775-0.341h0.546c0.717 0 1.638-0.205 2.355-0.205s1.604 0 2.287 0.205h0.58c0.546 0 1.263 0.171 1.809 0.341 0.171 0 0.546 0.171 0.717 0.171 0.546 0.205 1.058 0.41 1.604 0.41 0.205 0 0.546 0.171 0.717 0.171 0.546 0.171 1.058 0.341 1.809 0.717 0.171 0 0.375 0.171 0.546 0.171 0.717 0.341 1.434 0.717 2.15 1.058 0.171 0.171 0.375 0.171 0.546 0.375 0.546 0.375 0.887 0.546 1.434 0.887 0.205 0.205 0.546 0.375 0.717 0.546s0.546 0.375 0.717 0.58l358.059 305.869v-484.284z" />
<glyph unicode="&#xe929;" glyph-name="iconos-372" d="M960.102 489.301c-21.811 21.777-47.855 32.666-78.336 32.666h-36.932v147.9c0 15.394-3.857 32.358-11.605 50.79-7.646 18.534-16.93 33.178-27.682 43.964l-87.825 87.791c-10.786 10.786-25.429 20.036-43.895 27.75-18.534 7.714-35.465 11.571-50.893 11.571h-388.267c-15.394 0-28.501-5.393-39.287-16.179s-16.179-23.893-16.179-39.287v-314.3h-36.966c-30.447 0-56.525-10.889-78.302-32.666s-32.631-47.855-32.631-78.302v-240.367c0-4.983 1.809-9.284 5.461-13.005 3.652-3.618 7.987-5.461 13.005-5.461h129.434v-92.433c0-15.428 5.393-28.501 16.179-39.287 10.786-10.82 23.893-16.179 39.287-16.179h554.667c15.394 0 28.501 5.359 39.287 16.179s16.179 23.859 16.179 39.287v92.433h129.434c4.983 0 9.318 1.843 13.005 5.461 3.652 3.652 5.461 7.987 5.461 13.005v240.367c0 30.447-10.854 56.525-32.597 78.302zM770.833 78.234h-517.666v147.866h517.666v-147.866zM770.833 448h-517.666v369.732h369.766v-92.399c0-15.428 5.427-28.501 16.179-39.287 10.786-10.786 23.893-16.179 39.287-16.179h92.433v-221.867zM907.776 385.024c-7.305-7.339-15.974-10.991-26.010-10.991-10.001 0-18.671 3.652-26.010 10.991-7.305 7.305-10.923 15.974-10.923 26.010 0 10.001 3.618 18.671 10.923 26.010 7.339 7.305 16.009 10.957 26.010 10.957 10.035 0 18.705-3.652 26.010-10.957 7.339-7.339 11.025-16.009 11.025-26.010 0-10.035-3.686-18.705-11.025-26.010z" />
<glyph unicode="&#xe92a;" glyph-name="file-text" d="M917.806 730.924c-22.212 30.292-53.174 65.7-87.178 99.704s-69.412 64.964-99.704 87.178c-51.574 37.82-76.592 42.194-90.924 42.194h-496c-44.112 0-80-35.888-80-80v-864c0-44.112 35.888-80 80-80h736c44.112 0 80 35.888 80 80v624c0 14.332-4.372 39.35-42.194 90.924zM785.374 785.374c30.7-30.7 54.8-58.398 72.58-81.374h-153.954v153.946c22.984-17.78 50.678-41.878 81.374-72.572zM896 16c0-8.672-7.328-16-16-16h-736c-8.672 0-16 7.328-16 16v864c0 8.672 7.328 16 16 16 0 0 495.956 0.002 496 0v-224c0-17.672 14.326-32 32-32h224v-624zM736 128h-448c-17.672 0-32 14.326-32 32s14.328 32 32 32h448c17.674 0 32-14.326 32-32s-14.326-32-32-32zM736 256h-448c-17.672 0-32 14.326-32 32s14.328 32 32 32h448c17.674 0 32-14.326 32-32s-14.326-32-32-32zM736 384h-448c-17.672 0-32 14.326-32 32s14.328 32 32 32h448c17.674 0 32-14.326 32-32s-14.326-32-32-32z" />
<glyph unicode="&#xe92b;" glyph-name="image" d="M959.884 832c0.040-0.034 0.082-0.076 0.116-0.116v-767.77c-0.034-0.040-0.076-0.082-0.116-0.116h-895.77c-0.040 0.034-0.082 0.076-0.114 0.116v767.772c0.034 0.040 0.076 0.082 0.114 0.114h895.77zM960 896h-896c-35.2 0-64-28.8-64-64v-768c0-35.2 28.8-64 64-64h896c35.2 0 64 28.8 64 64v768c0 35.2-28.8 64-64 64v0zM832 672c0-53.020-42.98-96-96-96s-96 42.98-96 96 42.98 96 96 96 96-42.98 96-96zM896 128h-768v128l224 384 256-320h64l224 192z" />
<glyph unicode="&#xe92c;" glyph-name="volume-high" horiz-adv-x="1088" d="M890.040 37.96c-12.286 0-24.566 4.686-33.942 14.056-18.744 18.746-18.744 49.136 0 67.882 87.638 87.642 135.904 204.16 135.904 328.1 0 123.938-48.266 240.458-135.904 328.098-18.744 18.746-18.744 49.138 0 67.882s49.138 18.744 67.882 0c105.77-105.772 164.022-246.4 164.022-395.98s-58.252-290.208-164.022-395.98c-9.372-9.372-21.656-14.058-33.94-14.058zM719.53 128.47c-12.286 0-24.566 4.686-33.942 14.056-18.744 18.744-18.744 49.136 0 67.882 131.006 131.006 131.006 344.17 0 475.176-18.744 18.746-18.744 49.138 0 67.882 18.744 18.742 49.138 18.744 67.882 0 81.594-81.59 126.53-190.074 126.53-305.466 0-115.39-44.936-223.876-126.53-305.47-9.372-9.374-21.656-14.060-33.94-14.060v0zM549.020 218.98c-12.286 0-24.568 4.686-33.942 14.058-18.746 18.746-18.746 49.134 0 67.88 81.1 81.1 81.1 213.058 0 294.156-18.746 18.746-18.746 49.138 0 67.882s49.136 18.744 67.882 0c118.53-118.53 118.53-311.392 0-429.922-9.372-9.368-21.656-14.054-33.94-14.054zM416.006 0c-8.328 0-16.512 3.25-22.634 9.374l-246.626 246.626h-114.746c-17.672 0-32 14.326-32 32v320c0 17.672 14.328 32 32 32h114.746l246.626 246.628c9.154 9.154 22.916 11.89 34.874 6.936 11.958-4.952 19.754-16.622 19.754-29.564v-832c0-12.944-7.796-24.612-19.754-29.564-3.958-1.64-8.118-2.436-12.24-2.436z" />
<glyph unicode="&#xe92d;" glyph-name="display" d="M864 800.128l-704-0.128c-17.696 0-32-14.176-32-31.872v-448c0-17.696 14.304-32 32-32h704c17.696 0 32 14.304 32 32v448c0 17.696-14.304 32-32 32zM864 320h-704v448.128h704v-448.128zM928 928h-832c-53.024 0-96-42.944-96-96v-640c0-52.928 42.816-95.808 95.68-95.936h320.32v-38.944l-199.744-25.952c-14.272-3.552-24.256-16.352-24.256-31.040 0-17.696 14.304-32 32-32h576c17.696 0 32 14.304 32 32 0 14.688-9.984 27.488-24.256 31.072l-199.744 25.92v38.944h320.32c52.864 0.128 95.68 43.008 95.68 95.936v640c0 53.056-43.008 96-96 96zM960 192c0-17.632-14.368-32-32-32h-832c-17.664 0-32 14.368-32 32v640c0 17.664 14.336 32 32 32h832c17.632 0 32-14.336 32-32v-640z" />
<glyph unicode="&#xe92e;" glyph-name="checked" d="M309.881 31.925c8.73-8.73 20.573-13.634 32.918-13.634 12.349 0 24.188 4.907 32.915 13.634l634.649 634.649c8.733 8.73 13.637 20.57 13.637 32.915 0 12.349-4.903 24.188-13.637 32.918l-131.671 131.668c-18.177 18.177-47.654 18.18-65.834 0l-470.047-470.054-131.674 131.674c-8.73 8.73-20.573 13.637-32.918 13.637s-24.185-4.907-32.915-13.637l-131.671-131.671c-18.177-18.18-18.177-47.654 0-65.834l296.247-296.266z" />
<glyph unicode="&#xe92f;" glyph-name="iconos-282" d="M60.757 150.938c-6.349-6.349-9.523-14.336-9.523-23.074s3.209-16.657 9.523-23.006c12.732-12.732 33.417-12.732 46.148 0l405.129 405.129 405.129-405.129c12.732-12.732 33.417-12.732 46.080 0 12.663 12.663 12.663 33.348 0 46.080l-428.203 428.203c-12.663 12.663-33.348 12.663-46.080 0l-428.203-428.203zM60.757 363.008c-6.349-6.417-9.523-14.336-9.523-23.074s3.209-16.657 9.523-23.074c12.732-12.663 33.417-12.663 46.148 0l405.129 405.197 405.129-405.197c12.732-12.663 33.417-12.663 46.080 0 12.663 12.732 12.663 33.417 0 46.148l-428.203 428.134c-12.663 12.732-33.348 12.732-46.080 0l-428.203-428.134z" />
<glyph unicode="&#xe930;" glyph-name="doctor-stethoscope" d="M486.482 908.715c0-28.324 22.961-51.285 51.285-51.285s51.285 22.961 51.285 51.285c0 28.324-22.961 51.285-51.285 51.285s-51.285-22.961-51.285-51.285zM214.76 908.715c0-28.324 22.961-51.285 51.285-51.285s51.285 22.961 51.285 51.285c0 28.324-22.961 51.285-51.285 51.285s-51.285-22.961-51.285-51.285zM113.242 862.068c26.057 45.131 72.724 72.073 124.839 72.073v-50.863c-33.727 0-63.925-17.436-80.791-46.642-16.866-29.211-16.866-64.083-0.005-93.293l163.383-282.983c16.861-29.206 47.064-46.642 80.791-46.647 33.727 0 63.93 17.436 80.796 46.647l163.378 282.988c16.861 29.206 16.861 64.083 0 93.288s-47.069 46.647-80.796 46.647v50.863c52.115 0 98.787-26.942 124.844-72.078s26.057-99.021 0-144.152l-163.378-282.983c-21.729-37.634-57.811-62.557-99.412-69.82v-136.476c0-133.318 78.701-241.779 175.438-241.779s175.433 108.461 175.433 241.779v162.498c-57.933 11.81-101.666 63.162-101.666 124.544 0 70.085 57.018 127.102 127.102 127.102s127.102-57.018 127.102-127.102c0-61.377-43.732-112.728-101.671-124.544v-162.498c0-161.364-101.518-292.642-226.301-292.642-124.778 0-226.296 131.278-226.296 292.642v136.476c-41.596 7.263-77.683 32.186-99.407 69.82l-163.383 282.983c-26.062 45.131-26.062 99.021 0 144.152z" />
<glyph unicode="&#xe931;" glyph-name="doctor-stethoscope2" d="M537.518 908.715c0-28.324-22.961-51.285-51.285-51.285s-51.285 22.961-51.285 51.285c0 28.324 22.961 51.285 51.285 51.285s51.285-22.961 51.285-51.285zM809.24 908.715c0-28.324-22.961-51.285-51.285-51.285s-51.285 22.961-51.285 51.285c0 28.324 22.961 51.285 51.285 51.285s51.285-22.961 51.285-51.285zM910.758 862.068c-26.057 45.131-72.724 72.073-124.839 72.073v-50.863c33.727 0 63.925-17.436 80.791-46.642 16.866-29.211 16.866-64.083 0.005-93.293l-163.383-282.983c-16.861-29.206-47.064-46.642-80.791-46.647-33.727 0-63.93 17.436-80.796 46.647l-163.378 282.988c-16.861 29.206-16.861 64.083 0 93.288s47.069 46.647 80.796 46.647v50.863c-52.115 0-98.787-26.942-124.844-72.078s-26.057-99.021 0-144.152l163.378-282.983c21.729-37.634 57.811-62.557 99.412-69.82v-136.476c0-133.318-78.701-241.779-175.438-241.779s-175.433 108.461-175.433 241.779v162.498c57.933 11.81 101.666 63.162 101.666 124.544 0 70.085-57.018 127.102-127.102 127.102s-127.102-57.018-127.102-127.102c0-61.377 43.732-112.728 101.671-124.544v-162.498c0-161.364 101.518-292.642 226.301-292.642 124.778 0 226.296 131.278 226.296 292.642v136.476c41.596 7.263 77.683 32.186 99.407 69.82l163.383 282.983c26.062 45.131 26.062 99.021 0 144.152z" />
<glyph unicode="&#xe932;" glyph-name="user-md" horiz-adv-x="805" d="M219.429 182.857c0-20-16.571-36.571-36.571-36.571s-36.571 16.571-36.571 36.571 16.571 36.571 36.571 36.571 36.571-16.571 36.571-36.571zM804.571 148c0-93.143-61.143-148-152.571-148h-499.429c-91.429 0-152.571 54.857-152.571 148 0 113.714 22.857 293.143 158.857 322.857-9.143-21.714-12.571-45.143-12.571-68.571v-116c-44-15.429-73.143-57.143-73.143-103.429 0-60.571 49.143-109.714 109.714-109.714s109.714 49.143 109.714 109.714c0 46.286-29.714 88-73.143 103.429v116c0 18.857 1.714 37.714 14.286 53.143 48-37.714 107.429-59.429 168.571-59.429s120.571 21.714 168.571 59.429c12.571-15.429 14.286-34.286 14.286-53.143v-36.571c-80.571 0-146.286-65.714-146.286-146.286v-50.857c-11.429-10.286-18.286-25.143-18.286-40.571 0-30.286 24.571-54.857 54.857-54.857s54.857 24.571 54.857 54.857c0 15.429-6.857 30.286-18.286 40.571v50.857c0 40 33.143 73.143 73.143 73.143s73.143-33.143 73.143-73.143v-50.857c-11.429-10.286-18.286-25.143-18.286-40.571 0-30.286 24.571-54.857 54.857-54.857s54.857 24.571 54.857 54.857c0 15.429-6.857 30.286-18.286 40.571v50.857c0 52-28 100.571-73.143 126.286 0 41.714 4 86.286-12.571 125.143 136-29.714 158.857-209.143 158.857-322.857zM621.714 658.286c0-121.143-98.286-219.429-219.429-219.429s-219.429 98.286-219.429 219.429 98.286 219.429 219.429 219.429 219.429-98.286 219.429-219.429z" />
<glyph unicode="&#xe933;" glyph-name="user" horiz-adv-x="731" d="M731.429 151.428c0-83.429-54.857-151.429-121.714-151.429h-488c-66.857 0-121.714 68-121.714 151.429 0 150.286 37.143 324 186.857 324 46.286-45.143 109.143-73.143 178.857-73.143s132.571 28 178.857 73.143c149.714 0 186.857-173.714 186.857-324zM585.143 658.286c0-121.143-98.286-219.429-219.429-219.429s-219.429 98.286-219.429 219.429 98.286 219.429 219.429 219.429 219.429-98.286 219.429-219.429z" />
<glyph unicode="&#xe934;" glyph-name="cloud-upload" horiz-adv-x="1097" d="M731.429 457.143c0 4.571-1.714 9.714-5.143 13.143l-201.143 201.143c-3.429 3.429-8 5.143-13.143 5.143-4.571 0-9.714-1.714-13.143-5.143l-200.571-200.571c-3.429-4-5.714-8.571-5.714-13.714 0-10.286 8-18.286 18.286-18.286h128v-201.143c0-9.714 8.571-18.286 18.286-18.286h109.714c9.714 0 18.286 8.571 18.286 18.286v201.143h128c10.286 0 18.286 8.571 18.286 18.286zM1097.143 292.571c0-121.143-98.286-219.429-219.429-219.429h-621.714c-141.143 0-256 114.857-256 256 0 99.429 57.714 189.714 147.429 231.429-0.571 8.571-1.143 16.571-1.143 24.571 0 161.714 130.857 292.571 292.571 292.571 118.857 0 225.714-72 270.857-181.714 26.286 22.857 60 35.429 94.857 35.429 80.571 0 146.286-65.714 146.286-146.286 0-28-8-55.429-23.429-78.857 99.429-23.429 169.714-112 169.714-213.714z" />
<glyph unicode="&#xe935;" glyph-name="chart" d="M127.584 832h-31.584v-768h832v30.816l-799.872 1.6-0.544 735.584zM544 800c0 17.696-14.336 32-32 32h-96c-17.696 0-32-14.304-32-32v-640h160v640zM352 608c0 17.664-14.336 32-32 32h-96c-17.696 0-32-14.336-32-32v-448h160v448zM736 416c0 17.696-14.336 32-32 32h-96c-17.696 0-32-14.304-32-32v-256h160v256zM896 256h-96c-17.696 0-32-14.304-32-32v-64h160v64c0 17.696-14.336 32-32 32z" />
<glyph unicode="&#xe936;" glyph-name="newspaper" horiz-adv-x="1344" d="M1184 32c38.272 0 64 25.728 64 64v848c0 8.832-7.168 16-16 16s-16-7.168-16-16v-848c0-27.84-20.064-32-32-32-3.296 0-32 0.896-32 32v848c0 8.832-7.168 16-16 16s-16-7.168-16-16v-848c0-42.016 32.192-64 64-64zM144 288h320c8.832 0 16 7.168 16 16v288c0 8.832-7.168 16-16 16h-320c-8.832 0-16-7.168-16-16v-288c0-8.832 7.168-16 16-16zM160 576h288v-256h-288v256zM144 704h768c8.832 0 16 7.168 16 16v128c0 8.832-7.168 16-16 16h-768c-8.832 0-16-7.168-16-16v-128c0-8.832 7.168-16 16-16zM160 832h736v-96h-736v96zM912 608h-320c-8.832 0-16-7.168-16-16s7.168-16 16-16h320c8.832 0 16 7.168 16 16s-7.168 16-16 16zM912 512h-320c-8.832 0-16-7.168-16-16s7.168-16 16-16h320c8.832 0 16 7.168 16 16s-7.168 16-16 16zM912 416h-320c-8.832 0-16-7.168-16-16s7.168-16 16-16h320c8.832 0 16 7.168 16 16s-7.168 16-16 16zM912 320h-320c-8.832 0-16-7.168-16-16s7.168-16 16-16h320c8.832 0 16 7.168 16 16s-7.168 16-16 16zM912 224h-320c-8.832 0-16-7.168-16-16s7.168-16 16-16h320c8.832 0 16 7.168 16 16s-7.168 16-16 16zM144 192h320c8.832 0 16 7.168 16 16s-7.168 16-16 16h-320c-8.832 0-16-7.168-16-16s7.168-16 16-16zM912 128h-320c-8.832 0-16-7.168-16-16s7.168-16 16-16h320c8.832 0 16 7.168 16 16s-7.168 16-16 16zM144 96h320c8.832 0 16 7.168 16 16s-7.168 16-16 16h-320c-8.832 0-16-7.168-16-16s7.168-16 16-16zM160-62.304h1024c0.256 0 0.512 0 0.64 0 0.224 0 0.416 0.128 0.64 0.128 86.688 0.704 157.056 71.328 157.056 158.176v848c0 7.904-6.4 14.304-14.304 14.304s-14.304-6.4-14.304-14.304v-848c0-71.52-58.176-129.696-129.696-129.696s-129.728 58.176-129.728 129.696v848c0 7.904-6.4 14.304-14.304 14.304h-1024c-7.904 0-14.304-6.4-14.304-14.304v-848c0-87.296 71.008-158.304 158.304-158.304zM30.304 929.696h995.36v-833.696c0-9.792 1.184-19.296 2.88-28.64 0.352-1.856 0.64-3.712 1.056-5.536 1.984-8.896 4.608-17.504 8.032-25.792 0.608-1.504 1.344-2.912 2.016-4.384 3.456-7.744 7.456-15.2 12.096-22.24 0.544-0.8 0.96-1.664 1.504-2.464 5.056-7.36 10.816-14.176 16.992-20.576 1.344-1.376 2.656-2.72 4.064-4.064 5.952-5.76 12.224-11.232 19.008-16h-933.312c-71.488 0-129.696 58.176-129.696 129.696v833.696z" />
<glyph unicode="&#xe937;" glyph-name="linkedin" d="M928 960h-832c-52.8 0-96-43.2-96-96v-832c0-52.8 43.2-96 96-96h832c52.8 0 96 43.2 96 96v832c0 52.8-43.2 96-96 96zM384 128h-128v448h128v-448zM320 640c-35.4 0-64 28.6-64 64s28.6 64 64 64c35.4 0 64-28.6 64-64s-28.6-64-64-64zM832 128h-128v256c0 35.4-28.6 64-64 64s-64-28.6-64-64v-256h-128v448h128v-79.4c26.4 36.2 66.8 79.4 112 79.4 79.6 0 144-71.6 144-160v-288z" />
<glyph unicode="&#xe938;" glyph-name="bubble" d="M512 896c282.77 0 512-186.25 512-416 0-229.752-229.23-416-512-416-27.156 0-53.81 1.734-79.824 5.044-109.978-109.978-241.25-129.7-368.176-132.596v26.916c68.536 33.578 128 94.74 128 164.636 0 9.754-0.758 19.33-2.164 28.696-115.796 76.264-189.836 192.754-189.836 323.304 0 229.75 229.23 416 512 416z" />
<glyph unicode="&#xe939;" glyph-name="heart, like, love, favorite" d="M755.188 896c-107.63 0-200.258-87.554-243.164-179-42.938 91.444-135.578 179-243.216 179-148.382 0-268.808-120.44-268.808-268.832 0-301.846 304.5-380.994 512.022-679.418 196.154 296.576 511.978 387.206 511.978 679.418 0 148.392-120.43 268.832-268.812 268.832z" />
</font>
</defs>
</svg>
